#TITLE:Baby Don't Cry;
#SUBTITLE:;
#ARTIST:安室奈美恵;
#TITLETRANSLIT:;
#SUBTITLETRANSLIT:;
#ARTISTTRANSLIT:;
#CREDIT:;
#BANNER:baby don't cry-LOGO.jpg;
#BACKGROUND:baby don't cry.jpg;
#LYRICSPATH:;
#CDTITLE:Lan.png;
#MUSIC:Baby Don't Cry.mp3;
#OFFSET:-0.020;
#SAMPLESTART:48.000;
#SAMPLELENGTH:12.000;
#SELECTABLE:YES;
#BPMS:0.000=125.000;
#STOPS:;
#BGCHANGES:;
// cache tags:
#FIRSTBEAT:4.000;
#LASTBEAT:228.000;
#SONGFILENAME:Songs/Super Dancer Online/Baby Don't Cry/Baby Don't Cry.sm;
#HASMUSIC:1;
#HASBANNER:1;
#MUSICLENGTH:109.469;
// end cache tags

//---------------dance-single - sky----------------
#NOTES:
     dance-single:
     sky:
     Hard:
     8:
     0.830,0.755,1.000,0.100,0.164,414.000,205.000,11.000,0.000,18.000:

0000
0000
0000
0000
,
1000
0000
0000
1000
0100
0000
1000
0000
0000
0000
1000
0000
0000
0000
0000
0000
,
1000
0000
0000
1000
0100
0000
1000
0000
0000
0000
1000
0000
1000
0000
0000
0000
,
1000
0000
0010
1000
0110
0000
1000
0000
0010
0000
1010
0000
0001
0000
0000
0000
,
1000
0000
0010
1000
0110
0000
1000
0000
0010
0000
1010
0000
1001
0000
0000
0000
,
1000
0000
0010
1000
0110
0000
1000
0000
0010
0000
1010
0000
1001
0000
0000
0000
,
1000
0000
0010
1000
0110
0000
1000
0000
0010
0000
1010
0000
0101
0000
0000
0000
,
1000
0000
0010
1000
0110
0000
1000
0000
0010
0000
1010
0000
0101
0000
0000
0000
,
1000
0000
0010
1000
0110
0000
1000
0000
0010
0000
1010
0000
0101
0000
0000
0000
,
1000
0000
0010
1000
1010
0000
1000
0000
0010
0000
1010
0000
1001
0000
0000
0000
,
1000
0000
0010
1000
1010
0000
1000
0000
0010
0000
1010
0000
1001
0000
0000
0000
,
1000
0000
0010
1000
1010
0000
1000
0000
0010
0000
1010
0000
1001
0000
0000
0000
,
1000
0000
0010
1000
1010
0000
1000
0000
0010
0000
1010
0000
1001
0000
0000
0000
,
1000
0101
0011
0100
1001
0101
0010
0100
,
0010
1001
1010
0100
1010
1001
0010
0100
,
0010
1001
1010
0100
1010
1001
0010
0100
,
1000
0000
0000
0010
,
1000
0101
0011
0100
1001
0101
0010
0100
,
0010
1001
1010
0100
1010
1001
0010
0100
,
0010
1001
1010
0100
1010
1001
0010
0100
,
0000
1001
1000
0010
1000
1001
0000
0000
,
1000
0101
0011
0100
1001
0101
0010
0100
,
0010
1001
1010
0100
1010
1001
0010
0100
,
0010
1001
1010
0100
1010
1001
0010
0100
,
1000
0101
0011
0100
1001
0101
0010
0000
,
0010
1001
1010
0100
1010
1001
0010
0100
,
0010
1001
1010
0100
1010
1001
0010
0100
,
1000
0101
0011
0100
1001
0101
1010
0000
,
0010
1100
1010
0001
1010
1100
0011
0000
,
1010
0000
0001
1000
1010
0000
1100
0000
0010
0000
1001
0000
0110
0000
0000
0000
,
1001
0000
0010
1000
1100
0000
1010
0000
0001
0000
1010
0000
0111
0000
0000
0000
,
1001
0000
0100
0001
0011
0000
1001
0000
0100
0000
0011
0000
1100
0000
0000
0000
,
0011
0000
0100
0001
1001
0000
0011
0000
0100
0000
1001
0000
0110
0000
0000
0000
,
1010
0000
0001
1000
1010
0000
1100
0000
0010
0000
1001
0000
0110
0000
0000
0000
,
1001
0000
0010
1000
1100
0000
1010
0000
0001
0000
1010
0000
0101
0000
0000
0000
,
1001
0000
0100
0001
0011
0000
1001
0000
0100
0000
0011
0000
1100
0000
0000
0000
,
0011
0000
0100
0001
1001
0000
0011
0000
0100
0000
1001
0000
0110
0000
0000
0000
,
1010
0000
0001
1000
1010
0000
1100
0000
0010
0000
1001
0000
0110
0000
0000
0000
,
1001
0000
0010
1000
1100
0000
1010
0000
0001
0000
1010
0000
0101
0000
0000
0000
,
1001
0000
0100
0001
0011
0000
1001
0000
0100
0000
0011
0000
1101
0000
0000
0000
,
0011
0000
0100
0001
1001
0000
0011
0000
0100
0000
1001
0000
0110
0000
0000
0000
,
1001
0000
0100
0001
0011
0000
1001
0000
0100
0000
0011
0000
1100
0000
0000
0000
,
0011
0000
0100
0001
1001
0000
0011
0000
0100
0000
1001
0000
0110
0000
0000
0000
,
1001
0000
0100
0001
0011
0000
1001
0000
0100
0000
0011
0000
1100
0000
0000
0000
,
0011
0000
0100
0001
1001
0000
0011
0000
0100
0000
1001
0000
0110
0000
0000
0000
,
1000
0000
0000
1000
1012
0000
1000
0000
0010
0000
1000
0000
1023
0000
0000
0000
,
1001
0000
0000
1000
1030
0000
1000
0000
0000
0000
1000
0000
0110
0000
0000
0000
,
0001
0000
0000
0001
1201
0000
0001
0000
1000
0000
0001
0000
2301
0000
0000
0000
,
0101
0000
0000
0001
3001
0000
0001
0000
0000
0000
0001
0000
0110
0000
0000
0000
,
1100
0000
0000
1100
1102
0000
1100
0000
0000
0000
1100
0000
1123
0000
0000
0000
,
1100
0000
0000
1100
1130
0000
1100
0000
0000
0000
1100
0000
0011
0000
0000
0000
,
0101
0000
0000
0101
1010
0000
0101
0000
0000
0000
0101
0000
1010
0000
0000
0000
,
0101
0000
0000
0101
1010
0000
0101
0000
0000
0000
0101
0000
1100
0000
0000
0000
,
1002
0100
0010
0100
0000
1000
0100
0010
,
2103
0010
0001
0010
0000
0001
0010
0100
,
3012
0100
1000
0100
0000
1000
0100
0010
,
2103
0010
0001
0010
3002
0010
0100
1000
,
0003
0000
0000
0000
;
